#TITLE:twelfth style;
#SUBTITLE:~Sky Fid original~;
#ARTIST:Tatsh feat. DAYBREAKERS NEXT;
#TITLETRANSLIT:;
#SUBTITLETRANSLIT:;
#ARTISTTRANSLIT:;
#CREDIT:;
#BANNER:twelfth style -banner-.png;
#BACKGROUND:twelfth style -bg-.jpg;
#LYRICSPATH:;
#CDTITLE:sky fid.png;
#MUSIC:beatmania IIDX 12 HAPPY SKY - Twelfth Style.mp3;
#OFFSET:-1.415;
#SAMPLESTART:13.630;
#SAMPLELENGTH:12.000;
#SELECTABLE:YES;
#BPMS:0.000=159.960,288.000=80.020;
#STOPS:;
#BGCHANGES:;
// cache tags:
#FIRSTBEAT:0.000;
#LASTBEAT:305.750;
#SONGFILENAME:Songs/Chilean Keyboard Megapack 3/(Sky Fid) Twelfth style/thelfth style.sm;
#HASMUSIC:1;
#HASBANNER:1;
#MUSICLENGTH:125.835;
// end cache tags

//---------------dance-single - ----------------
#NOTES:
     dance-single:
     :
     Challenge:
     11:
     1.000,1.000,1.000,0.501,0.966,685.000,209.000,63.000,0.000,4.000:
2002
0000
0000
0000
0000
3003
0000
0000
1000
0000
0001
0000
0100
0000
0010
0000
,
2002
0000
0000
0000
0000
0000
0000
0000
0000
3000
0000
0000
0103
0000
0000
0000
,
0202
0000
0000
0300
0013
0100
0001
1000
,
1020
0000
0000
0030
0102
0000
0000
0003
1200
0000
0000
0000
0310
0000
0000
0000
,
0202
0000
0000
0000
0000
0303
0000
0000
1000
0000
0010
0000
0001
0000
0010
0000
,
0220
0000
0000
0000
0330
0000
0000
0000
1000
0000
0000
0000
0021
0000
0000
0030
,
0202
0303
0000
0000
,
2001
0000
0000
3000
0020
0000
0000
0030
2001
0000
0000
3000
0202
0000
0000
0000
,
0000
0000
0000
0000
0000
0000
0000
0000
0000
0000
0000
0000
0000
0303
0000
0000
,
0000
0000
0000
0000
,
1000
0010
0000
1000
0000
0000
1010
0000
0101
0000
0010
0000
2001
0000
0000
3000
,
0100
0001
0000
1000
0000
0000
0011
0000
1100
0000
0001
0000
0101
0000
0000
0000
,
1010
0000
0000
0100
0000
0000
0001
0000
0011
0000
0000
0100
0000
0001
0010
0001
,
1000
0000
1010
0000
0100
0000
0101
0000
0010
1000
0000
0110
0000
1000
0010
0000
,
1001
0100
0000
0010
0000
0000
0101
0000
1100
0000
0010
0000
1001
0000
0001
0000
,
0101
1000
0000
0001
0000
0000
0110
0000
0101
0000
1000
0000
1100
0100
0000
0100
,
1000
0100
0010
0001
0000
0001
0100
0000
1001
0000
0011
0000
0110
0000
1100
0000
,
2002
0000
3003
0202
0000
0303
2200
0000
3300
0010
0001
0010
1000
0100
0010
0000
,
0110
0001
0000
0001
0000
0010
0100
0000
1100
0000
0110
0000
2001
0000
3001
0000
,
0101
1000
0000
1000
0000
0100
0001
0000
0101
0000
0110
0000
2001
0001
3000
0001
,
0100
0000
0001
0110
0000
1000
0010
0000
0011
0000
1000
0110
0000
0001
0010
1000
,
0010
0000
0011
0000
0110
0000
0100
0000
1000
0010
0000
0100
0000
0001
0100
0010
,
1100
0010
0000
1000
0000
0100
0001
0000
0101
0000
0110
0000
2000
0000
0010
3000
,
0101
0010
0000
0100
0000
0010
0001
0000
0011
0000
0110
0000
0102
0100
0003
0001
,
0100
1000
0100
0010
0000
0010
1000
0000
1100
0000
0110
0000
0100
0000
0100
0000
,
0022
0000
0033
2200
0000
3300
2002
0000
0003
3010
1000
0001
0010
0001
1100
0000
,
0010
0100
0001
1000
0100
1000
0010
0000
0101
0000
1100
0000
1010
0000
0101
0000
,
0010
1000
0010
0001
0010
1000
0001
0000
1100
0000
0110
0000
0011
0000
0110
0000
,
0100
1000
0100
0001
0100
1000
0001
0000
1001
0000
0110
0000
0101
0000
1100
0000
,
0010
0100
0001
0010
1000
0000
1010
0000
0010
0000
0011
0000
0001
0000
0101
0000
,
0010
1000
0100
0001
1000
0000
0110
0000
0001
1000
0010
0100
0010
0000
0101
0000
,
0000
0000
1010
0000
0100
1000
0000
0001
0010
0000
0100
0001
0000
0100
0010
0100
,
0011
0000
1000
0010
0000
0100
0010
0000
1010
0000
0010
0000
0101
0000
0001
0000
,
1001
0000
0100
0010
0000
0100
1000
0100
0110
0000
0010
0000
0101
0000
1000
0000
,
0011
0000
1000
0010
0000
0001
0010
0000
1010
1000
0000
0100
0010
0001
1000
0000
,
1001
0000
0100
0000
1000
0000
0011
0000
0100
0010
1000
0100
0000
0010
0001
0100
,
1001
0000
0100
0000
1001
0000
0010
0000
1001
0100
0010
0100
0000
0010
0100
0000
,
0011
0000
1000
0000
0011
0000
1000
0000
0011
1000
0001
1000
0000
0010
0100
0000
,
1010
0000
0110
0000
1001
0000
0010
0000
0101
0010
1000
0010
0100
0001
0010
0000
,
2002
0000
3003
2200
0000
3300
0022
0000
0033
1000
0010
0000
0010
0100
0001
1000
,
0011
0100
0010
1000
0100
0010
0100
1000
0101
0000
0000
0000
0110
0000
0000
0000
,
1001
0000
0000
0100
0000
0000
0010
0000
0000
0100
0000
0000
0010
0000
0000
1000
0000
0000
0010
0000
1000
0000
0100
0000
0010
0000
0001
0000
0100
0000
0001
0000
0000
0100
0000
0000
0001
0000
0000
1000
0000
0000
0010
0000
0000
0100
0000
0000
,
1001
0010
1001
0001
0101
1000
0110
1000
,
0010
0000
0010
0000
0101
0000
0000
0000
0010
0100
0010
0000
0101
0000
0000
0000
,
0010
0101
0010
0101
1000
0110
0010
1100
,
0001
0000
0001
1000
0101
0000
0000
0000
0001
0010
0100
1000
0101
0000
0000
0000
,
1010
0000
0100
0010
0100
0001
1000
0000
1010
0000
0100
1000
0000
0001
0010
0000
,
0110
0000
0001
0100
1001
0000
0000
0000
0010
0100
0001
1000
0011
0000
0000
0000
,
1010
0000
0100
1000
0100
0001
0010
0000
1000
0010
0001
0100
0000
0010
1000
0000
,
0010
0000
0010
1000
0110
0000
0000
0000
0001
0010
1000
0010
0110
0000
0000
0000
,
0001
0100
0010
0100
1001
0000
0010
0100
0000
0001
1000
0100
0010
0000
0000
0000
,
0000
0010
1000
0000
0010
0110
0000
0000
0000
0001
0100
0000
0021
0000
0030
0000
,
1010
0000
0100
0000
0011
0100
0000
0011
0100
0000
0001
1000
0000
0010
1000
0000
,
0110
0000
0001
0000
1100
0010
0000
1100
0010
0000
1000
0001
0000
0100
0010
0100
,
1010
0000
0100
0000
0110
1000
0000
0110
0001
0000
0100
0001
0000
0010
1000
0000
,
0101
0010
1000
0010
0101
0010
1000
0010
0101
0000
1000
0010
0000
0001
0010
0000
,
0101
0000
0010
0000
0100
0010
0000
1001
0010
0000
1000
0010
0000
1000
0001
0000
,
0110
0000
0101
0000
0010
1000
0000
0011
1000
0000
0001
0100
0000
0010
1000
0010
,
0101
0000
0001
0000
1000
0001
0000
1100
0010
0000
0100
0001
0000
1000
0010
0000
,
0110
0001
1000
0001
0110
0001
1000
0001
0110
0000
1000
0100
0000
0001
0100
0000
,
1100
0001
1100
0001
1100
0001
1000
0100
0001
0010
0100
0010
1001
0110
1001
0110
,
1001
0000
0100
0000
0001
0100
0010
0101
0010
0000
1001
0010
0000
1000
0010
0000
,
0110
0000
0101
0000
0010
1000
0010
1100
0001
0000
0101
1000
0000
1000
0001
0000
,
1010
0000
0100
0000
0010
0100
0001
0110
0001
0000
0100
1000
0000
0100
0010
0000
,
1100
0010
0100
0011
1000
0010
0100
1001
0010
0000
1001
0010
0000
0101
0010
0000
,
1100
0000
0001
0000
1010
0100
0001
0110
1000
0000
0100
0010
0000
1000
0001
0000
,
1010
0001
0100
0000
0010
0100
0010
1000
0001
0000
0101
0010
0000
0100
0001
0100
,
1001
0000
0100
0000
0011
0100
0001
1100
0010
0000
1000
0010
0000
0001
0010
0000
,
0101
1000
0101
0010
0100
0010
1000
0011
0100
0001
0010
0100
0000
1000
0010
0000
,
1100
0001
0100
0010
0101
0010
1000
0001
0110
0001
1000
0001
1100
0001
0100
0010
,
0110
0000
0000
0000
,
0000
0000
0000
0000
,
1020
0000
0000
0000
0130
0001
0010
0110
1100
0000
0000
0000
0000
0000
1020
0000
,
0231
0000
0300
0000
0001
0010
0100
1000
1200
0300
2010
3000
0120
0030
0201
0300
,
0022
0033
0000
0000
0001
0010
1000
0010
0210
0000
0300
0000
2000
3000
0210
0300
,
0102
0003
0010
0000
2001
3201
1302
0223
,
0000
0000
0000
0000
0000
0000
0000
0330
0000
0000
0000
0000
0000
0000
0000
0000
;
